okbola88.info - The Largest Bittorent System Login   |    Register
Latest Articles
Most searched
Hot torrents
Movie Torrents
View Torrent Info: Mission: Impossible - Fallout (2018) [720p] [YTS] [YIFY]
View Torrent Info: Crazy Rich Asians (2018) [720p] [YTS] [YIFY]
View Torrent Info: Kin (2018) [720p] [YTS] [YIFY]
View Torrent Info: Robin Hood The Rebellion (2018) [720p] [YTS] [YIFY]
View Torrent Info: The Miseducation of Cameron Post (2018) [720p] [YTS] [YIFY]
View Torrent Info: Dog Days (2018) [720p] [YTS] [YIFY]
View Torrent Info: Patrick (2018) [720p] [YTS] [YIFY]
View Torrent Info: Alone We Fight (2018) [720p] [YTS] [YIFY]
View Torrent Info: Welcome to Mercy (2018) [720p] [YTS] [YIFY]
View Torrent Info: Bao (2018) [720p] [YTS] [YIFY]
Hot torrents
TV Torrents
View Torrent Info: Young.Sheldon.S02E08.HDTV.x264-KILLERS[eztv]
View Torrent Info: Greys.Anatomy.S15E07.HDTV.x264-KILLERS[eztv]
View Torrent Info: Arrow.S07E04.HDTV.x264-SVA
View Torrent Info: The.Big.Bang.Theory.S12E08.HDTV.x264-SVA[eztv]
View Torrent Info: The.Big.Bang.Theory.S12E08.XviD-AFG[eztv]
View Torrent Info: Supernatural.S14E05.HDTV.x264-SVA[eztv]
View Torrent Info: S.W.A.T.2017.S02E07.XviD-AFG[eztv]
View Torrent Info: The.Last.Ship.S05E09.XviD-AFG
View Torrent Info: Chicago.PD.S06E07.HDTV.x264-SVA[eztv]
View Torrent Info: How.to.Get.Away.with.Murder.S05E07.HDTV.x264-CRAVERS[eztv]
okbola88.info > Categories > Movies torrents > Bollywood/Desi torrents


Browse Movies torrents

Laila Majnu (2018) Hindi 720p WEB-HD AVC AAC-Sun George torrent



Download torrent: Download Laila Majnu (2018) Hindi 720p WEB-HD AVC AAC-Sun George torrent Magnet link Bookmark Torrent: Laila Majnu (2018) Hindi 720p WEB-HD AVC AAC-Sun George Laila Majnu (2018) Hindi 720p WEB-HD AVC AAC-Sun George torrent | if not working, try instead: Magnet Link
Info hash: C2A7267065C3A7E5919AB19FBB0C1FCEDF7DCC48
Category: Categories > Movies torrents > Bollywood/Desi torrents
Trackers:
15    View all torrent trackers >
Health:
 seeds: 0 ,  leechers: 0 |  Update >
Total Size: 1.40 GB
Torrent status: Added by trusted uploader Added by trusted uploader Trusted Uploader Site Friend Superman Sun
Uploader: Trusted Uploader Site Friend Superman Sun
Torrent added: 2018-11-09 15:56:43
 

Download Laila Majnu (2018) Hindi 720p WEB-HD AVC AAC-Sun George torrent if not working, try downloading torrent using Download Laila Majnu (2018) Hindi 720p WEB-HD AVC AAC-Sun George via Magnet Link




Torrent Description

Laila Majnu (2018) Hindi 720p WEB-HD AVC AAC-Sun George



http://www.imdb.com/title/tt8011276/






===================================================================


General
Format : Matroska
Format version : Version 4 / Version 2
File size : 1.38 GiB
Duration : 2 h 12 min
Overall bit rate : 1 500 kb/s
Movie name : Laila Majnu (2018) Hindi 720p WEB-HD AVC AAC-Sun George


===================================================================


Video
ID : 1
Format : AVC
Format/Info : Advanced Video Codec
Format profile : [email protected]
Format settings : CABAC / 4 Ref Frames
Format settings, CABAC : Yes
Format settings, RefFrames : 4 frames
Codec ID : V_MPEG4/ISO/AVC
Duration : 2 h 12 min
Bit rate : 1 248 kb/s
Width : 1 280 pixels
Height : 720 pixels
Display aspect ratio : 16:9
Frame rate mode : Variable
Frame rate : 25.000 FPS
Color space : YUV
Chroma subsampling : 4:2:0
Bit depth : 8 bits
Scan type : Progressive
Bits/(Pixel*Frame) : 0.054
Stream size : 1.15 GiB (83%)
Title : Sun George


===================================================================


Audio
ID : 2
Format : AAC
Format/Info : Advanced Audio Codec
Format profile : LC
Codec ID : A_AAC-2
Duration : 2 h 12 min
Bit rate : 249 kb/s
Channel(s) : 2 channels
Channel positions : Front: L R
Sampling rate : 48.0 kHz
Frame rate : 46.875 FPS (1024 SPF)
Compression mode : Lossy
Stream size : 236 MiB (17%)
Title : Sun George
Writing library : Lavc57.42.100 aac
Language : Hindi
Default : Yes
Forced : No














#Sungeorge -> To avoid fakes, ALWAYS check that the torrent was added on okbola88.info by Sungeorge

http://okbola88.info/



Download Laila Majnu (2018) Hindi 720p WEB-HD AVC AAC-Sun George torrent


Comments (please add your comment)
No comments



Home - Browse Torrents - Upload Torrent - Stat - Forum - FAQ - Login
okbola88.info is in compliance with copyrights
2006-2018 okbola88.info
SitemapDoll Making, Repair | Distance: nearest first | 5kg Australian Made plastic poly pellets for weighted blankets Budget Bargain Fantastic Duo Season 2 | How Not To Live Your Life | PiĆ¹ vicini