okbola88.info - The Largest Bittorent System Login   |    Register
Latest Articles
Most searched
Hot torrents
Movie Torrents
View Torrent Info: The Equalizer 2 (2018) [720p] [YTS] [YIFY]
View Torrent Info: Mile 22 (2018) [720p] [YTS] [YIFY]
View Torrent Info: The Meg (2018) [720p] [YTS] [YIFY]
View Torrent Info: Papillon (2017) [720p] [YTS] [YIFY]
View Torrent Info: Charming (2018) [720p] [YTS] [YIFY]
View Torrent Info: Luis & the Aliens (2018) [720p] [YTS] [YIFY]
View Torrent Info: Gold (2018) [720p] [YTS] [YIFY]
View Torrent Info: Nun (2017) [720p] [YTS] [YIFY]
View Torrent Info: Along with the Gods: The Last 49 Days (2018) [720p] [YTS] [YIFY]
View Torrent Info: Welcome to Mercy (2018) [720p] [YTS] [YIFY]
Hot torrents
TV Torrents
View Torrent Info: The.Flash.2014.S05E04.HDTV.x264-SVA[eztv]
View Torrent Info: DCs.Legends.of.Tomorrow.S04E02.HDTV.x264-SVA[eztv]
View Torrent Info: The.Walking.Dead.S09E04.HDTV.x264-KILLERS[eztv]
View Torrent Info: American.Horror.Story.S08E08.WEBRip.x264-TBS[eztv]
View Torrent Info: Arrow.S07E03.HDTV.x264-SVA[eztv]
View Torrent Info: The.Good.Doctor.S02E05.HDTV.x264-KILLERS[eztv]
View Torrent Info: The.Big.Bang.Theory.S12E07.HDTV.x264-SVA[eztv]
View Torrent Info: The.Gifted.S02E05.HDTV.x264-LucidTV[eztv]
View Torrent Info: Modern.Family.S10E06.XviD-AFG[eztv]
View Torrent Info: Lethal.Weapon.S03E05.WEB.x264-TBS[eztv]
okbola88.info > Categories > Music torrents > Progressive torrents


Browse Music torrents

Jethro Tull - Thick as a Brick (1972), [Wav] Original Vinyl Rip torrent



Download torrent: Magnet link Bookmark Torrent: Jethro Tull - Thick as a Brick (1972), [Wav] Original Vinyl Rip Download Jethro Tull - Thick as a Brick (1972), [Wav] Original Vinyl Rip torrent (magnet link)
Info hash: C7D8E091169073C1F2CAACA2346F60312885488A
Category: Categories > Music torrents > Progressive torrents
Trackers:
17    View all torrent trackers >
Health:
 seeds: 5 ,  leechers: 0 |  Update >
Torrent language:  
Total Size: 495.72 MB
Torrent status: Added by trusted uploader Added by trusted uploader Trusted Uploader Site Friend Superman Sun
Uploader: Trusted Uploader Site Friend Superman Sun
 

Download Jethro Tull - Thick as a Brick (1972), [Wav] Original Vinyl Rip via Magnet Link




Torrent Description



Jethro Tull - Thick as a Brick (1972)



.: Dati Album :.

Titolo: Thick as a Brick
Artista: Jethro Tull
Anno: 1972
Genere: Progressive
Etichetta: Chrysalis


.: Tracklist :.
Thick as a Brick Part 1 - 22:41

  • Really Don't Mind / See There a Son Is Born

  • The Poet and the Painter

  • What Do You Do When the Old Man's Gone / From The Upper Class

  • You Curl Your Toes In Fun / Childhood Heroes


Thick as a Brick Part 2 - 21:09
  • See There a Man Is Born / Clear White Circles

  • Believe In the Day

  • Tales of Your Life

  • Childhood Heroes Reprise / Thick as a Brick



.: Formazione :.
  • Ian Anderson : voce, flauto, chitarra acustica, violino, tromba, sassofono
  • Martin Barre : chitarra elettrica, liuto
  • Jeffrey Hammond : basso
  • Barriemore Barlow : batteria, percussioni, timpani
  • John Evan : tastiere, organo, clavicembalo
  • David Palmer : arrangiamento e direzione orchestrale
.: Note sul disco rippato :.

Il disco che vi propongo, è una prima stampa MADE IN ITALY del 1972 in ottime condizioni in mio possesso con, come potrete vedere dalla fotografie fatte, (no, non ho potuto scannerizzarle per ovvi motivi :asd:) la copertina-quotidiano è in ottime condizioni dato che il cruciverba non è stato compilato ed il gioco "unisci i puntini" è stato fatto con una traccia leggerissima di matita, cancellabile in qualsiasi momento. Al di là della copertina, il disco in sè è davvero tenuto bene, senza troppi crepitii.
Il vinile non ha nessun graffio, eccezionale pensando alla data di stampa del disco.



.: Dati Tecnici :.

Prima stampa italiana 1972, rippata con giradischi Audio Technica e il software Audacity.

[spoiler]

General
Complete name : ..\1972 - Thick as a Brick\01 - Thick as a Brick Part 1.wav
Format : Wave
File size : 229 MiB
Duration : 22 min 40 s
Overall bit rate mode : Constant
Overall bit rate : 1 413 kb/s
Album : Thick as a Brick
Album/Performer : Jethro Tull
Track name : Thick as a Brick Part 1
Track name/Position : 1
Performer : Jethro Tull
Director : Jethro Tull
Genre : Progressive / Progressive
Recorded date : 1972 / 1972
Original source form/Name : Thick as a Brick
Cover : Yes
Cover type : Cover (front)
Cover MIME : image/jpeg
Comment : Ripped by ARPANET from original Vinyl Italian 1972 Copy. / Ripped by ARPANET from original Vinyl Italian 1972 Copy.
Durata : 22'45''
ITRK : 1
itrk : 1

Audio
Format : PCM
Format settings, Endianness : Little
Format settings, Sign : Signed
Codec ID : 1
Duration : 22 min 40 s
Bit rate mode : Constant
Bit rate : 1 411.2 kb/s
Channel(s) : 2 channels
Sampling rate : 44.1 kHz
Bit depth : 16 bits
Stream size : 229 MiB (100%)

General
Complete name : ..\1972 - Thick as a Brick\02 - Thick as a Brick Part 2.wav
Format : Wave
File size : 214 MiB
Duration : 21 min 8 s
Overall bit rate mode : Constant
Overall bit rate : 1 413 kb/s
Album : Thick as a Brick
Album/Performer : Jethro Tull
Track name : Thick as a Brick Part 2
Track name/Position : 2
Performer : Jethro Tull
Director : Jethro Tull
Genre : Progressive / Progressive
Recorded date : 1972 / 1972
Original source form/Name : Thick as a Brick
Cover : Yes
Cover type : Cover (front)
Cover MIME : image/jpeg
Comment : Ripped by ARPANET from original Vinyl Italian 1972 Copy. / Ripped by ARPANET from original Vinyl Italian 1972 Copy.
ITRK : 2
itrk : 2

Audio
Format : PCM
Format settings, Endianness : Little
Format settings, Sign : Signed
Codec ID : 1
Duration : 21 min 8 s
Bit rate mode : Constant
Bit rate : 1 411.2 kb/s
Channel(s) : 2 channels
Sampling rate : 44.1 kHz
Bit depth : 16 bits
Stream size : 213 MiB (100%)

[/spoiler]

Cover art fotografate



#ARPANET -> To avoid fakes, ALWAYS check that the torrent was added on okbola88.info by ARPANET

http://okbola88.info/




Comments (please add your comment)
No comments



Home - Browse Torrents - Upload Torrent - Stat - Forum - FAQ - Login
okbola88.info is in compliance with copyrights
2006-2018 okbola88.info
SitemapDie meist beobachteten | IMDb: 6 HD Errementari | Hunting Dog beeper collar Hunter 2000 Research | Google Home Hub with Google Assistant Smart 7 Display - Chalk Grey | saison 8